Milslav шахматы

Список разделов Склады работ и W.I.P Именные склады работ, набросков и т.п.

Описание: Ваши небольшие работы и недоработки в Blender, личные хвасталки, вопросы.
Модераторы: exooman, SergeV_temp

  • 1

Сообщение #61 Милослав » 02.05.2018, 15:12

Изображение
Для подтверждения авторства.
Спойлер
Указано кто добавил.
https://freelance.discount/lot/shaxmaty_28907.html
Добавлено спустя 2 минуты 54 секунды:
NaCl писал(а):Лошадью ходи!
В каком смысле?
Милослав
Аватара
Сообщения: 370

Сообщение #62 NaCl » 02.05.2018, 18:29

Милослав писал(а):В каком смысле?
В смысле кино вспомнил. :-D
Ich hab' keine Lust
NaCl M
шеф-повар
Откуда: Калининград
Сообщения: 1628


  • 1

Сообщение #63 Ozzik » 02.05.2018, 21:03

Спойлер
phpBB [media]
:-D
Все (почти) работы в норм.качестве тут:
https://ozzik-3d.deviantart.com/gallery/
Ozzik M
Аватара
Сообщения: 1404



  • 1

Сообщение #64 NaCl » 02.05.2018, 21:38

Спойлер
О, даже готовый к употреблению вариант есть :oD
Ich hab' keine Lust
NaCl M
шеф-повар
Откуда: Калининград
Сообщения: 1628


Сообщение #65 Милослав » 03.05.2018, 00:22

NaCl писал(а):О, даже готовый к употреблению вариант есть
Он самый :)
Любишь спойлеры?
Милослав
Аватара
Сообщения: 370

  • 1

Сообщение #66 NaCl » 03.05.2018, 00:25

Это что-бы левая кнопка мыши не застаивалась, ведь в блендере почти все на ПКМ ;)
Ich hab' keine Lust
NaCl M
шеф-повар
Откуда: Калининград
Сообщения: 1628


Сообщение #67 Милослав » 03.05.2018, 00:27

NaCl писал(а):Это что-бы левая кнопка мыши не застаивалась, ведь в блендере почти все на ПКМ
Ясно.
Милослав
Аватара
Сообщения: 370

  • 0

Сообщение #68 Милослав » 08.05.2018, 15:46

По стандарту.

Софт: Blender3D
Рендеринг: Cycles
Освещение сцены: HDR

Изображение
Спойлер
Изображение
Милослав
Аватара
Сообщения: 370

  • 0

Сообщение #69 Милослав » 10.05.2018, 15:26

Изображение
Вариант в png (оригинал) 0,4 кб (L7ZZ 24Bit сжатие без потерь) вместо 0,06 (jpeg 8Bit сжатие с потерями (в качестве))
Спойлер
https://freelance.discount/lot/preview/671a1c2af3490a9b94fb7f5e3051028a.png
Милослав
Аватара
Сообщения: 370

  • -1

Сообщение #70 Милослав » 16.05.2018, 15:24

Софт: Blender3D 2,79
Рендеринг: Cycles
Освещение сцены: HDR
Тех данные: original render
Спойлер
Формат : PNG
Формат/Информация : Portable Network Graphic
Format_Compression : LZ77
Ширина : 2560 пикселей
Высота : 1600 пикселей
Битовая глубина : 64 бит
Метод сжатия : Без потерь
Размер потока : 13,9 Мбайт (100%)
Изображение
Милослав
Аватара
Сообщения: 370

  • -1

Сообщение #71 Милослав » 18.05.2018, 15:34

Изображение
Милослав
Аватара
Сообщения: 370

Сообщение #72 Korchy » 18.05.2018, 19:14

Вы с Кайвасом не родственники? ))
Korchy M
Аватара
Сообщения: 2222



Сообщение #73 Милослав » 19.05.2018, 00:46

Korchy писал(а):Вы с Кайвасом не родственники?
Не, впервые слышу.
А что так?
Милослав
Аватара
Сообщения: 370

  • 1

Сообщение #74 Korchy » 19.05.2018, 09:43

Милослав писал(а):Не, впервые слышу.
А что так?
У него куча однообразных рендеров домиков, у тебя - фигурок :-D
Korchy M
Аватара
Сообщения: 2222



Сообщение #75 Милослав » 19.05.2018, 14:45

Korchy писал(а):У него куча однообразных рендеров домиков, у тебя - фигурок
А, ясно это всё объясняет.
Милослав
Аватара
Сообщения: 370

Сообщение #76 Милослав » 24.05.2018, 15:24

Софт: Blender3D 2,79
Рендеринг: Cycles
Освещение сцены: HDR
Тех данные: original render
Спойлер
Формат : PNG
Формат/Информация : Portable Network Graphic
Format_Compression : LZ77
Ширина : 2560 пикселей
Высота : 1600 пикселей
Битовая глубина : 64 бит
Метод сжатия : Без потерь
Размер потока : 13,9 Мбайт (100%)
Изображение
Милослав
Аватара
Сообщения: 370

Сообщение #77 Милослав » 26.05.2018, 13:37

Изображение
Милослав
Аватара
Сообщения: 370

Сообщение #78 Милослав » 30.05.2018, 15:12

Софт: Blender3D 2,79
Рендеринг: Cycles
Освещение сцены: HDR
Тех данные: original render

Спойлер
Формат : PNG
Формат/Информация : Portable Network Graphic
Format_Compression : LZ77
Ширина : 2560 пикселей
Высота : 1600 пикселей
Битовая глубина : 64 бит
Метод сжатия : Без потерь

Изображение
Спойлер
Изображение
Милослав
Аватара
Сообщения: 370

Сообщение #79 Милослав » 01.06.2018, 15:32

Изображение
Спойлер
Изображение
Милослав
Аватара
Сообщения: 370

Сообщение #80 Милослав » 05.06.2018, 15:14

Софт: Blender3D 2,79
Рендеринг: Cycles
Освещение сцены: HDR
Тех данные: original render
Спойлер
Формат : PNG
Формат/Информация : Portable Network Graphic
Format_Compression : LZ77
Ширина : 2560 пикселей
Высота : 1600 пикселей
Битовая глубина : 64 бит
Метод сжатия : Без потерь
Изображение
Спойлер
Изображение
Милослав
Аватара
Сообщения: 370

Пред.След.

Вернуться в Именные склады работ, набросков и т.п.

Кто сейчас на форуме (по активности за 5 минут)

Сейчас этот раздел просматривают: 3 гостя